The Santa Clause 1994 BDRip AAC-2 0 x264-AKS74u

  • Category Movies
  • Type h.264/x264
  • Language English
  • Total size 647.9 MB
  • Uploaded By l33tSp33d
  • Downloads 183
  • Last checked 8 months ago
  • Date uploaded 6 years ago
  • Seeders 0
  • Leechers 0

Infohash : 19E7676957BD9CF729B67CFD14B3EF84EF7FD630



XViD is DEAD, Embrace the almighty x264!
ri
@M [email protected],,,,,,;@@@@:
@@:[email protected]@@@@@@@@@@@@##@@@@@@@@@@@@@@@@@@@@@@@@@@@@@@@@@@@@2
[email protected]@@@#BB###MM###[email protected]@@#M########A&&AB#@@@@@@@@@@@@@@@@@@@@
22;,9#AGG&h2#@@;hBs::##M;,,[email protected]@BAGBAABMBBBBMHHHBMM################@@@@@: @@@@@@@@@@@@#[email protected]#@MhMMA&GAAHBHMHh&GHBMHBMMMMM##MMBMBMM#BBHHBBBBBBHBBM#@@@@@[email protected]@@@@@@@@@@@@@@@@@@@@@@@@@@@@A
: :r;: , &@AAAAAAAHBBHHHHBM#@@#@@@@#MAGABBBHH&3###[email protected]@[email protected]@@.is,:;;;;;;;;;;;;;;;:;;: [email protected]
:,........,;SHBh#AsXGi5MAAH&A#M#A3A2&[email protected]#MBHHBBBB#@@HBMh,S. ,@A
##G##[email protected]#@ B [email protected]#A ,::[email protected]@@@@H2r, :@A
@[email protected]###@h:@@ [email protected]@#MBM#; .;i9#@@@@@@A2r, @M
:@[email protected]@##@r ;.. . :[email protected]#HB#. .:[email protected]@@@@@#3r. @@
[email protected]&#@###@ [email protected]@@ :r3#@@@@@@5
@@&@###@M @@#@@M .:rAS
[email protected]@###@r :@##@@2
@@[email protected]@##@@ i###@@i
;@M#@###@2 ,@@@#Bs
@@#@###@@ r
[email protected]#@@###@s
[email protected]@@####@#
[email protected]@@@###@@
#@@@@@##@
;[email protected]@@@2
[email protected]@
AKS74u
Presents

Source: |Blu-Ray|
Subtitle(s): Yes (English, Spanish and French)
http://www.imdb.com/title/tt0111070/

General
Complete name: The.Santa.Clause.1994.BDRip.AAC-2.0.x264-AKS74u\tsc-bdrip-aks74u.mp4
Format: MPEG-4
Format profile: Base Media
Codec ID: isom
File size: 645 MiB
Duration: 1h 37mn
Overall bit rate mode: Variable
Overall bit rate: 928 Kbps
Encoded date: UTC 2012-11-08 23:30:37
Tagged date: UTC 2012-11-08 23:30:37

Video
ID: 1
Format: AVC
Format/Info: Advanced Video Codec
Format profile: [email protected]
Format settings, CABAC: Yes
Format settings, ReFrames: 5 frames
Codec ID: avc1
Codec ID/Info: Advanced Video Coding
Duration: 1h 37mn
Bit rate: 766 Kbps
Maximum bit rate: 4 410 Kbps
Width: 720 pixels
Height: 390 pixels
Display aspect ratio: 1.85:1
Frame rate mode: Constant
Frame rate: 23.976 fps
Color space: YUV
Chroma subsampling: 4:2:0
Bit depth: 8 bits
Scan type: Progressive
Bits/(Pixel*Frame): 0.114
Stream size: 532 MiB (82%)
Writing library: x264 core 125 r2208 d9d2288
Encoded date: UTC 2012-11-08 22:15:19
Tagged date: UTC 2012-11-08 23:31:39

Audio
ID: 2
Format: AAC
Format/Info: Advanced Audio Codec
Format profile: LC
Codec ID: 40
Duration: 1h 37mn
Bit rate mode: Variable
Bit rate: 158 Kbps
Maximum bit rate: 202 Kbps
Channel(s): 2 channels
Channel positions: Front: L R
Sampling rate: 48.0 KHz
Compression mode: Lossy
Delay relative to video: 83ms
Stream size: 110 MiB (17%)
Language: English
Encoded date: UTC 2012-11-08 23:31:37
Tagged date: UTC 2012-11-08 23:31:39
Plot: When a man inadvertantly kills Santa on Christmas Eve, he finds himself magically recruited to take his place




Files:

subs
  • subs.rar (3.0 MB)
  • tsc-bdrip-aks74u.mp4 (644.9 MB)
  • tsc-bdrip-aks74u.nfo (7.0 KB)

Comments

Code:

  • http://tracker.torrenting.com:6969/6633014144e7c8587e2a7e69d823f810/announce
SitemapSorry You're Not A Winner | Rajkummar Rao | Neo Yokio Give and Take: WHY HELPING OTHERS DRIVES OUR SUCCESS | Akame ga Kill Schwerter der Assassinen (4) | Avast Mobile Security Antivirus premium apk download