Alita: Battle Angel (2019) 720p HD-CAM x264 [Dual Audio] [Hindi(C...

  • Category Movies
  • Type Dubs/Dual Audio
  • Language Hindi
  • Total size 1.2 GB
  • Uploaded By DESIRE123
  • Downloads 178
  • Last checked 23 minutes ago
  • Date uploaded 32 minutes ago
  • Seeders 1
  • Leechers 13

Alita: Battle Angel

ActionScience FictionThrillerRomance

When Alita awakens with no memory of who she is in a future world she does not recognize, she is taken in by Ido, a compassionate doctor who realizes that somewhere in this abandoned cyborg shell is the heart and soul of a young woman with an extraordinary past.

Infohash : 7B032D3B59324583FC4E7F4830657B6D3297B06D

Alita: Battle Angel (2019) 720p HD-CAM x264 [Dual Audio] [Hindi(Cleaned) - English] - 1.2 GB


EXUSIVE UPLOAD BY DesireMoVies.Life


Alita: Battle Angel (2019)


POSTER




INFO


General
Format : Matroska
Format version : Version 4
File size : 1.17 GiB
Duration : 1 h 58 min
Overall bit rate : 1 410 kb/s

Video
ID : 1
Format : AVC
Format/Info : Advanced Video Codec
Format profile : [email protected]
Format settings : CABAC / 4 Ref Frames
Format settings, CABAC : Yes
Format settings, ReFrames : 4 frames
Codec ID : V_MPEG4/ISO/AVC
Duration : 1 h 58 min
Bit rate : 1 200 kb/s
Width : 1 280 pixels
Height : 534 pixels
Display aspect ratio : 2.40:1
Original display aspect ratio : 2.40:1
Frame rate mode : Constant
Frame rate : 23.976 (24000/1001) FPS
Color space : YUV
Chroma subsampling : 4:2:0
Bit depth : 8 bits
Scan type : Progressive
Bits/(Pixel*Frame) : 0.073
Stream size : 1 018 MiB (85%)
Default : Yes
Forced : No
Color range : Limited
Color primaries : BT.709
Transfer characteristics : BT.709
Matrix coefficients : BT.709

Audio #1
ID : 2
Format : MPEG Audio
Format version : Version 1
Format profile : Layer 3
Format settings : Joint stereo / MS Stereo
Codec ID : A_MPEG/L3
Codec ID/Hint : MP3
Duration : 1 h 58 min
Bit rate mode : Constant
Bit rate : 128 kb/s
Channel(s) : 2 channels
Sampling rate : 48.0 kHz
Frame rate : 41.667 FPS (1152 SPF)
Compression mode : Lossy
Delay relative to video : -105 ms
Stream size : 109 MiB (9%)
Writing library : LAME3.98
Language : Hindi
Default : Yes
Forced : Yes

Audio #2
ID : 3
Format : AAC LC SBR
Format/Info : Advanced Audio Codec Low Complexity with Spectral Band Replication
Commercial name : HE-AAC
Format settings : NBC
Codec ID : A_AAC-5
Duration : 1 h 58 min
Bit rate : 80.0 kb/s
Channel(s) : 2 channels
Channel layout : L R
Sampling rate : 48.0 kHz
Frame rate : 23.438 FPS (2048 SPF)
Compression mode : Lossy
Delay relative to video : -105 ms
Stream size : 67.9 MiB (6%)
Title : Stereo
Language : English
Default : No
Forced : No


SCREENSHOT



Keep Visit DesireMoVies.trade For More Exusive MoVies


Files:

Alita Battle Angel (2019) 720p HD-CAM x264 [Dual Audio] [Hindi(Cleaned) - English]
  • 1SAMPLE.mkv (10.9 MB)
  • Alita Battle Angel (2019) 720p HD-CAM x264 [Dual Audio] DesireMoVies.Life.mkv (1.2 GB)

There are currently no comments. Feel free to leave one :)

Code:

  • udp://tracker.opentrackr.org:1337/announce
  • udp://zer0day.to:1337/announce
  • udp://tracker.coppersurfer.tk:6969/announce
  • udp://tracker.coppersurfer.tk:80/announce
  • udp://p4p.arenabg.com:1337/announce
  • udp://p4p.arenabg.ch:1337/announce
  • udp://tracker.internetwarriors.net:1337/announce
  • udp://9.rarbg.to:2710/announce
  • udp://9.rarbg.me:2710/announce
  • udp://9.rarbg.com:2710/announce
  • udp://9.rarbg.me:2730/announce
  • udp://eddie4.nl:6969/announce
  • udp://tracker.leechers-paradise.org:6969/announce
  • udp://tracker.ilibr.org:80/announce
  • udp://tracker.ilibr.org:6969/announce
SitemapDeezLoader Reborn V3.1.0 final (Windows) | File Manager | Responder HD Misconduct | Viper Club | Dakota A.