The Darkest Minds (2018) 720p BluRay (Dual Audio) {ORG Hindi (DD ...

  • Category Movies
  • Type Dubs/Dual Audio
  • Language Hindi
  • Total size 1.6 GB
  • Uploaded By Sungeorge
  • Downloads 2344
  • Last checked 5 hours ago
  • Date uploaded 2 months ago
  • Seeders 24
  • Leechers 19

The Darkest Minds

Science FictionThriller

After a disease kills 98% of America's children, the surviving 2% develop superpowers and are placed in internment camps. A 16-year-old girl escapes her camp and joins a group of other teens on the run from the government.

Infohash : 77B2EBF2A02DE02DD272D6561480CC825E006F9C

The Darkest Minds (2018) 720p BluRay (Dual Audio) {ORG Hindi (DD 5.1)+English} x264 AC3 ESubs Sun George



http://www.imdb.com/title/tt4073790/






===================================================================


General
Format : Matroska
Format version : Version 4 / Version 2
File size : 1.55 GiB
Duration : 1 h 43 min
Overall bit rate : 2 135 kb/s
Movie name : The Darkest Minds (2018) 720p BluRay (Dual Audio) {ORG Hindi (DD 5.1)+English} x264 AC3 ESubs Sun George


===================================================================


Video
ID : 1
Format : AVC
Format/Info : Advanced Video Codec
Format profile : [email protected]
Format settings : CABAC / 5 Ref Frames
Format settings, CABAC : Yes
Format settings, RefFrames : 5 frames
Codec ID : V_MPEG4/ISO/AVC
Duration : 1 h 43 min
Bit rate : 1 500 kb/s
Width : 1 280 pixels
Height : 528 pixels
Display aspect ratio : 2.40:1
Frame rate mode : Constant
Frame rate : 23.976 (24000/1001) FPS
Color space : YUV
Chroma subsampling : 4:2:0
Bit depth : 8 bits
Scan type : Progressive
Bits/(Pixel*Frame) : 0.093
Stream size : 1.08 GiB (70%)
Title : Sun George


===================================================================


Audio #1
ID : 2
Format : AC-3
Format/Info : Audio Coding 3
Codec ID : A_AC3
Duration : 1 h 43 min
Bit rate mode : Constant
Bit rate : 448 kb/s
Channel(s) : 6 channels
Channel positions : Front: L C R, Side: L R, LFE
Sampling rate : 48.0 kHz
Frame rate : 31.250 FPS (1536 SPF)
Bit depth : 16 bits
Compression mode : Lossy
Stream size : 333 MiB (21%)
Title : Sun George
Language : Hindi
Service kind : Complete Main
Default : Yes
Forced : No


===================================================================


Audio #2
ID : 3
Format : AC-3
Format/Info : Audio Coding 3
Codec ID : A_AC3
Duration : 1 h 43 min
Bit rate mode : Constant
Bit rate : 192 kb/s
Channel(s) : 2 channels
Channel positions : Front: L R
Sampling rate : 48.0 kHz
Frame rate : 31.250 FPS (1536 SPF)
Bit depth : 16 bits
Compression mode : Lossy
Delay relative to video : 31 ms
Stream size : 143 MiB (9%)
Title : Sun George
Language : English
Service kind : Complete Main
Default : No
Forced : No


===================================================================


Text
ID : 4
Format : UTF-8
Codec ID : S_TEXT/UTF8
Codec ID/Info : UTF-8 Plain Text
Duration : 1 h 36 min
Bit rate : 52 b/s
Count of elements : 1336
Stream size : 36.9 KiB (0%)
Title : Sun George
Language : English
Default : Yes
Forced : Yes














Files:

The Darkest Minds (2018) 720p BluRay (Dual Audio) {ORG Hindi (DD 5.1)+English} x264 AC3 ESubs Sun George
  • The Darkest Minds (2018) 720p BluRay (Dual Audio) {ORG Hindi (DD 5.1)+English} x264 AC3 ESubs Sun George.mkv (1.5 GB)
  • Sample The Darkest Minds (2018) 720p BluRay (Dual Audio) {ORG Hindi (DD 5.1)+English} x264 AC3 ESubs Sun George.mkv (28.0 MB)
  • INFO.NFO (0.1 KB)

There are currently no comments. Feel free to leave one :)

Code:

  • udp://tracker.publicbt.com:80/announce
  • udp://tracker.pirateparty.gr:6969/announce
  • udp://tracker.tiny-vps.com:6969/announce
  • udp://9.rarbg.me:2800/announce
  • udp://9.rarbg.to:2720/announce
  • udp://public.popcorn-tracker.org:6969/announce
  • udp://open.stealth.si:80/announce
  • udp://tracker.vanitycore.co:6969/announce
  • udp://tracker.opentrackr.org:1337/announce
  • udp://bt.firebit.co.uk:6969/announce
  • udp://shadowshq.yi.org:6969/announce
  • udp://tracker.zer0day.to:1337/announce
  • udp://coppersurfer.tk:6969/announce
  • udp://tracker.trackerfix.com:80/announce
  • UDP://TRACKER.COPPERSURFER.TK:6969/ANNOUNCE
SitemapKonsole (0) | كامل مسلسلات أجنبية 111 Comedy HD مسلسل الكوميديا والدراما Atypical S01 HD | Шерлок / Sherlock [04x03] (2017) WEBRip 1080i от Phoenix-SHADOW | Первый канал | Локализованная версия Libraries Demo | Killjoys 2015 | Textra SMS v3.30 APK