S.W.A.T. S01E16 Payback 1080p 5.1 - 2.0 x264 Phun Psyz

  • Category TV
  • Type HD
  • Language English
  • Total size 856.9 MB
  • Uploaded By PhunPsyz
  • Downloads 294
  • Last checked 2 hours ago
  • Date uploaded 9 months ago
  • Seeders 10
  • Leechers 0

Infohash : E0D86CAB418E053C94A67F0EB657311081953162

www.imdb.com/title/tt7985754/?ref_=ttep_ep16

Hondo and team go on a citywide search for a kidnapped heiress. Mumford announces he's get married for the fourth time setting off alarm bells within the team.

Source: NTb (Amzn) (3.44 GiB)



Format : MPEG-4
Format profile : Base Media / Version 2
Codec ID : mp42 (isom/iso2/avc1/mp41)
File size : 857 MiB
Duration : 43 min 3 s
Overall bit rate mode : Variable
Overall bit rate : 2 783 kb/s

Video
ID : 1
Format : AVC
Format/Info : Advanced Video Codec
Format profile : [email protected]
Format settings : CABAC / 8 Ref Frames
Format settings, CABAC : Yes
Format settings, RefFrames : 8 frames
Codec ID : avc1
Codec ID/Info : Advanced Video Coding
Duration : 43 min 3 s
Bit rate : 2 296 kb/s
Width : 1 920 pixels
Height : 1 080 pixels
Display aspect ratio : 16:9
Frame rate mode : Variable
Frame rate : 23.976 (24000/1001) FPS
Minimum frame rate : 23.974 FPS
Maximum frame rate : 23.981 FPS
Color space : YUV
Chroma subsampling : 4:2:0
Bit depth : 8 bits
Scan type : Progressive
Bits/(Pixel*Frame) : 0.046
Stream size : 707 MiB (83%)
Writing library : x264 core 148 r2708 86b7198

Audio #1
ID : 2
Format : AC-3
Format/Info : Audio Coding 3
Format settings, Endianness : Big
Codec ID : ac-3
Duration : 43 min 3 s
Bit rate mode : Constant
Bit rate : 320 kb/s
Channel(s) : 6 channels
Channel positions : Front: L C R, Side: L R, LFE
Sampling rate : 48.0 kHz
Frame rate : 31.250 FPS (1536 SPF)
Bit depth : 16 bits
Compression mode : Lossy
Stream size : 98.5 MiB (11%)
Title : Surround / Surround
Language : English

Audio #2
ID : 3
Format : AAC
Format/Info : Advanced Audio Codec
Format profile : LC
Codec ID : mp4a-40-2
Duration : 43 min 3 s
Bit rate mode : Variable
Bit rate : 160 kb/s
Channel(s) : 2 channels
Channel positions : Front: L R
Sampling rate : 48.0 kHz
Frame rate : 46.875 FPS (1024 SPF)
Compression mode : Lossy
Stream size : 49.2 MiB (6%)
Title : Stereo / Stereo
Language : English

Files:

  • S.W.A.T. S01E16 Payback 1080p 5.1 - 2.0 x264 Phun Psyz.mp4 (856.9 MB)

Comments

Code:

  • udp://tracker.leechers-paradise.org:6969/announce
  • udp://tracker.pirateparty.gr:6969/announce
  • udp://tracker.internetwarriors.net:1337/announce
  • udp://inferno.demonoid.pw:3391/announce
  • http://explodie.org:6969/announce
  • http://mgtracker.org:6969/announce
  • udp://tracker.coppersurfer.tk:6969/announce
  • udp://public.popcorn-tracker.org:6969/announce
  • http://tracker.opentrackr.org/announce
  • udp://tracker.tiny-vps.com:6969/announce
SitemapThe Kids Menu | Watch Movie | SEAL Team Season 1 EP1 – EP3 พากย์ไทย Caribbean | Danchigai | http://cdrqq.net/21503/pj-harvey-to-bring-you-my-love-1995