Vikings S01 Season 1 COMPLETE 1080p WEB-DL H264-CtrlHD

  • Category TV
  • Type HD
  • Language English
  • Total size 15.2 GB
  • Uploaded By sj786
  • Downloads 357
  • Last checked 7 months ago
  • Date uploaded 2 years ago
  • Seeders 0
  • Leechers 0

Infohash : 8D6FEB38A456AC283D5B1F9BDACCC922C857C12F

Vikings S01 Season 1 COMPLETE 1080p WEB-DL H264-CtrlHD


Quote:


General
Format : Matroska
Format version : Version 2
File size : 1.64 GiB
Duration : 44mn 11s
Overall bit rate : 5 328 Kbps
Encoded date : UTC 2013-03-04 09:33:17
Writing application : mkvmerge v5.8.0 ('No Sleep / Pillow') built on Sep 2 2012 15:37:04
Writing library : libebml v1.2.3 + libmatroska v1.3.0

Video
ID : 1
Format : AVC
Format/Info : Advanced Video Codec
Format profile : [email protected]
Format settings, CABAC : Yes
Format settings, ReFrames : 4 frames
Muxing mode : Header stripping
Codec ID : V_MPEG4/ISO/AVC
Duration : 44mn 11s
Bit rate : 4 838 Kbps
Width : 1 920 pixels
Height : 1 080 pixels
Display aspect ratio : 16:9
Frame rate mode : Constant
Frame rate : 23.976 fps
Color space : YUV
Chroma subsampling : 4:2:0
Bit depth : 8 bits
Scan type : Progressive
Bits/(Pixel*Frame) : 0.097
Stream size : 1.49 GiB (91%)
Language : English
Default : Yes
Forced : No
Color primaries : BT.709
Transfer characteristics : BT.709
Matrix coefficients : BT.709

Audio
ID : 2
Format : AC-3
Format/Info : Audio Coding 3
Mode extension : CM (complete main)
Format settings, Endianness : Big
Muxing mode : Header stripping
Codec ID : A_AC3
Duration : 44mn 11s
Bit rate mode : Constant
Bit rate : 384 Kbps
Channel(s) : 6 channels
Channel positions : Front: L C R, Side: L R, LFE
Sampling rate : 48.0 KHz
Bit depth : 16 bits
Compression mode : Lossy
Stream size : 121 MiB (7%)
Language : English
Default : Yes
Forced : No

Text
ID : 3
Format : UTF-8
Codec ID : S_TEXT/UTF8
Codec ID/Info : UTF-8 Plain Text
Title : CC
Language : English
Default : Yes
Forced : No





Files:

  • Mediainfo.nfo (3.5 KB)
  • Vikings.S01E01.Rites.of.Passage.1080p.WEB-DL.DD5.1.H.264-CtrlHD.mkv (1.6 GB)
  • Vikings.S01E02.Wrath.of.the.Northmen.1080p.WEB-DL.DD5.1.H.264-CtrlHD.mkv (1.7 GB)
  • Vikings.S01E03.Dispossessed.1080p.WEB-DL.DD5.1.H.264-CtrlHD.mkv (1.7 GB)
  • Vikings.S01E04.Trial.1080p.WEB-DL.DD5.1.H.264-CtrlHD.mkv (1.7 GB)
  • Vikings.S01E05.Raid.1080p.WEB-DL.DD5.1.H.264-CtrlHD.mkv (1.7 GB)
  • Vikings.S01E06.Burial.of.the.Dead.1080p.WEB-DL.DD5.1.H.264-CtrlHD.mkv (1.8 GB)
  • Vikings.S01E07.A.King's.Ransom.1080p.WEB-DL.DD5.1.H.264-CtrlHD.mkv (1.7 GB)
  • Vikings.S01E08.Sacrifice.1080p.WEB-DL.DD5.1.H.264-CtrlHD.mkv (1.7 GB)
  • Vikings.S01E09.All.Change.1080p.WEB-DL.DD5.1.H.264-CtrlHD.mkv (1.6 GB)
  • Vikings.S01.sfv (0.7 KB)

There are currently no comments. Feel free to leave one :)

Code:

  • http://beyondhd.me:2710/0000671523b76a40bfd727788a9966c1/announce
Sitemapspotify music mod apk | Bishop Briggs | Horacio Garcia Rojas Watch Movie | 2in1 862d+ SMD Soldering Iron Hot Air Rework Station LED Display W/4 Nozzle 110V$55.39 19d left | Aasiya Personal Statement - 1570 Words