Gone Girl 2014 1080p BluRay DTS x264~Invincible

  • Category Movies
  • Type h.264/x264
  • Language English
  • Total size 3.4 GB
  • Uploaded By F3lix007
  • Downloads 149
  • Last checked 8 months ago
  • Date uploaded 4 years ago
  • Seeders 0
  • Leechers 1

Gone Girl

DramaMysteryThriller

With his wife's disappearance having become the focus of an intense media circus, a man sees the spotlight turned on him when it's suspected that he may not be innocent.

Infohash : 9C16239FA752CC93868E6AE484B438FE7B532D93





Code:

General
Complete name : Gone Girl 2014 1080p BluRay DTS x264~Invincible
Format : Matroska
Format version : Version 4 / Version 2
File size : 3.40 GiB
Duration : 2h 29mn
Overall bit rate : 3 263 Kbps
Movie name : Gone Girl 2014 1080p BluRay DTS x264~Invincible
Encoded date : UTC 2014-12-22 00:28:40
Writing application : mkvmerge v7.2.0 ('On Every Street') 64bit built on Sep 13 2014 15:52:10

Video
ID : 1
Format : AVC
Format/Info : Advanced Video Codec
Format profile : [email protected]
Format settings, CABAC : Yes
Format settings, ReFrames : 4 frames
Codec ID : V_MPEG4/ISO/AVC
Duration : 2h 29mn
Bit rate : 2 500 Kbps
Width : 1 920 pixels
Height : 800 pixels
Display aspect ratio : 2.40:1
Frame rate mode : Constant
Frame rate : 23.976 fps
Color space : YUV
Chroma subsampling : 4:2:0
Bit depth : 8 bits
Scan type : Progressive
Bits/(Pixel*Frame) : 0.068
Stream size : 2.54 GiB (75%)
Title : Gone Girl 2014
Writing library : x264 core 142 r2491M 24e4fed
Default : Yes
Forced : No

Audio
ID : 2
Format : DTS
Format/Info : Digital Theater Systems
Mode : 16
Format settings, Endianness : Big
Codec ID : A_DTS
Duration : 2h 29mn
Bit rate mode : Constant
Bit rate : 755 Kbps
Channel(s) : 6 channels
Channel positions : Front: L C R, Side: L R, LFE
Sampling rate : 48.0 KHz
Bit depth : 24 bits
Compression mode : Lossy
Stream size : 804 MiB (23%)
Title : English DTS 5.1 755Kbps
Language : English
Default : Yes
Forced : No

Text
ID : 3
Format : VobSub
Muxing mode : zlib
Codec ID : S_VOBSUB
Title : English VOB
Language : English
Default : No
Forced : No

Files:

  • Gone.Girl.2014.1080p.BluRay.DTS.x264~Invincible.mkv (3.4 GB)
Sample,Screens
  • SAMPLE.mkv (22.6 MB)
  • Screen (9).png (2.0 MB)
  • Screen (1).png (1.7 MB)
  • Screen (4).png (1.6 MB)
  • Screen (6).png (1.6 MB)
  • Screen (3).png (1.3 MB)
  • Screen (2).png (1.0 MB)
  • Screen (7).png (1.0 MB)
  • Screen (8).png (968.9 KB)
  • Screen (5).png (943.7 KB)
Join Us
  • !=Join Us=!.txt (0.4 KB)
  • Torrent Downloaded From ExtraTorrent.cc.txt (0.3 KB)

There are currently no comments. Feel free to leave one :)

Code:

  • udp://9.rarbg.com:2710/announce
  • http://torrent.gresille.org/announce
  • http://tracker.ex.ua:80/announce
  • http://94.228.192.98/announce
  • http://exodus.desync.com/announce
  • udp://tracker.publicbt.com:80/announce
  • udp://tracker.openbittorrent.com:80/announce
  • udp://tracker.token.ro:80/announce
  • udp://open.demonii.com:1337/announce
  • udp://t1.pow7.com:80/announce
  • udp://pow7.com:80/announce
  • udp://11.rarbg.com/announce
  • http://tracker.aletorrenty.pl:2710/announce
SitemapSaisons et Episodes | პერსონალური კომპიუტერები, ნოუთბუქები, ტაბლეტები | Zu verschenken Tauschen 1x87 Falsa Identidad | Read Essay | Manmarziyaan 2018 Hindi Movie Download Openload